Page 7 sur 8

Re: Retravailler les enregistrements de vos décodeurs enregi

MessagePosté: 28 Déc 2018 14:21
par LePierNoel
Bonjour,
Je possède un "Servimat Vega HD" qui cré des enregistrements d'émissions en "mts".
J'ai déjà essayé plusieurs logiciels (video-converter-ultimate_setup_full905, FreeDVDVideoConverter_2.0.65.823_r, freemake-video-converter_4-1-10-109_fr_341646, freemake-video-converter_4-1-10-109_fr_341646, freemake-video-converter_4-1-10-109_fr_341646, XMediaRecode3445_setup, winamp58_3660_beta_full_en-us, winamp58_3660_beta_full_en-us ...) pour traduire ces enregistrements en mp4 ou autre lisible sur PC.
Ils ne savent lire ces fichiers .mts.
Avez-vous une (bonne) idée qui puisse résoudre mon problème ?
Merci par avance.

Re: Retravailler les enregistrements de vos décodeurs enregi

MessagePosté: 28 Déc 2018 15:10
par marceljack
Bonjour,
Le freeware "Rectvedit" pourrait peut-être résoudre ton problème, même si ton décodeur n'est pas dans la liste officiellement supportée.
voir discussion ici:
https://www.homecinema-fr.com/forum/cha ... 48456.html

Le lien de téléchargement ne fonctionne plus mais j'ai mis le fichier zippé de la dernière version (4.10.1) en téléchargement libre sur dl.free.fr:

http://dl.free.fr/sMZqVBIs3

Re: Retravailler les enregistrements de vos décodeurs enregi

MessagePosté: 28 Déc 2018 15:36
par Steamboy
Bonjour,

A ma connaissance le Servimat Vega HD est un décodeur enregistreur TNTSAT, donc si c'est le cas les enregistrements sont cryptés contre la copie et on peut rien en faire malheureusement.

Re: Retravailler les enregistrements de vos décodeurs enregi

MessagePosté: 28 Déc 2018 15:42
par marceljack
Steamboy a écrit:Bonjour,
A ma connaissance le Servimat Vega HD est un décodeur enregistreur TNTSAT, donc si c'est le cas les enregistrements sont cryptés contre la copie et on peut rien en faire malheureusement.
Je pensais qu'il s'agissait d'un décodeur terrestre. :oops:
Si c'est un décodeur TNTSAT, aucun espoir en effet, seul lui-même peut relire ses propres enregistrements. :(

Re: Retravailler les enregistrements de vos décodeurs enregi

MessagePosté: 28 Déc 2018 15:45
par Djeipi
Bonjour

A ma connaissance le Servimat Vega HD est un décodeur enregistreur TNTSAT, donc si c'est le cas les enregistrements sont cryptés contre la copie et on peut rien en faire malheureusement.


Pas tout à fait, voir ici :
https://www.homecinema-fr.com/forum/cha ... 10-45.html

Dans le cas des récepteurs d'émissions satellite non cryptées (dits FTA) on peut renommer les .mts en .ts et les traiter avec Avidemux.

Re: Retravailler les enregistrements de vos décodeurs enregi

MessagePosté: 28 Déc 2018 15:51
par Steamboy
Djeipi a écrit:Pas tout à fait, voir ici :
https://www.homecinema-fr.com/forum/cha ... 10-45.html


Et sur ce forum à cette adresse :wink: http://www.tvnt.net/forum/recuperer-les-enregistrements-des-box-sat-cable-en-1080p-t36888.html

Re: Retravailler les enregistrements de vos décodeurs enregi

MessagePosté: 28 Déc 2018 15:58
par Djeipi
Oui, merci Steamboy, j'étais en train de rechercher ce lien où tout est dit :Couc:

Re: Retravailler les enregistrements de vos décodeurs enregi

MessagePosté: 18 Mar 2019 15:48
par Gluto
Bonjour...

J'enregistre régulièrement et depuis longtemps en adsl et TNT via ma Freebox ou TNT via mon récepteur TNT additionnel...

Pour retravailler mes enregistrements, il me fallait un logiciel simple pour couper le début, la fin, et la pub au milieu, et cela à l'image près...
j'ai fini par acheter Videoredo TV suite V4, puis plus récemment l’extension vers V5...

Occasionnellement, on peut se prendre la tête avec des logiciels gratuits, mais je confirme que pour cette utilisation, quand on enregistre beaucoup, je n'ai pas vu mieux...
Certes c'est un peu cher... Mais que de temps gagné...

Il permet aussi de parfaitement rabouter avant l’opération ci dessus deux ou des fichiers multiples (tsv) obtenus par certains enregistreurs au delà de 4Go...
Ce n'est pas super intuitif... mais le résultat est parfait...

Gluto

Re: Retravailler les enregistrements de vos décodeurs enregi

MessagePosté: 24 Mar 2019 09:55
par coré
Bonsoir à tous ! ^^

Un petit renseignement, voila, j'utilise Avidemux afin de découper mes enregistrements TNT, seulement voila, grâce à Media Info, j'ai pu constater des différences avant et après découpage (je précise que je ne fais pas de réencodage, je me contente juste de virer le plus possible la pub).

Pour vous donner un exemple concret, le fichier TNT original indique pour la vidéo :
Code: Tout sélectionner
Video
ID                          : 620 (0x26C)
Menu ID                     : 518 (0x206)
Format                      : AVC
Format/Info                 : Advanced Video Codec
Format profile              : High@L4
Format settings             : CABAC / 4 Ref Frames
Format settings, CABAC      : Yes
Format settings, ReFrames   : 4 frames
Codec ID                    : 27
Duration                    : 1 h 4 min
Bit rate                    : 5 488 kb/s
Width                       : 1 920 pixels
Height                      : 1 080 pixels
Display aspect ratio        : 16:9
Frame rate                  : 25.000 FPS
Standard                    : Component
Color space                 : YUV
Chroma subsampling          : 4:2:0
Bit depth                   : 8 bits
Scan type                   : MBAFF
Scan type, store method     : Interleaved fields
Scan order                  : Top Field First
Bits/(Pixel*Frame)          : 0.106
Stream size                 : 2.48 GiB (89%)
Color range                 : Limited
Color primaries             : BT.709
Transfer characteristics    : BT.709
Matrix coefficients         : BT.709


Quant au fichier remuxer après découpage, il indique ceci pour la partie vidéo :

Code: Tout sélectionner
Video
ID                          : 1
Format                      : AVC
Format/Info                 : Advanced Video Codec
Format profile              : High@L4
Format settings             : CABAC / 4 Ref Frames
Format settings, CABAC      : Yes
Format settings, ReFrames   : 4 frames
Codec ID                    : V_MPEG4/ISO/AVC
Duration                    : 19 min 46 s
Bit rate                    : 3 922 kb/s
Width                       : 1 920 pixels
Height                      : 1 080 pixels
Display aspect ratio        : 16:9
Frame rate mode             : Constant
Frame rate                  : 25.000 FPS
Standard                    : Component
Color space                 : YUV
Chroma subsampling          : 4:2:0
Bit depth                   : 8 bits
Scan type                   : MBAFF
Scan type, store method     : Separated fields
Scan order                  : Top Field First
Bits/(Pixel*Frame)          : 0.076
Stream size                 : 555 MiB (89%)
Default                     : Yes
Forced                      : No
Color range                 : Limited
Color primaries             : BT.709
Transfer characteristics    : BT.709
Matrix coefficients         : BT.709


Comme vous pouvez le constater, des éléments tel que le « Scan type, store method » change entre le fichier d'origine et celui découpé.
Quelqu'un sait-il pourquoi (du moins si c'est normal ?) et si cela a une incidence (modification) sur le fichier et si oui en quoi ?

De plus, j'ai une autre question mais y'a t-il une façon de découper facilement les GOP ?
Je pose la question car actuellement, la seule méthode que j'ai trouvé consiste à appuyer une fois sur la flèche droite de mon clavier (pour déterminer les premières pubs à enlever), appuyer sur le bouton B d'Avidemux pour déterminer le point de coupe, appuyer sur Suppr du clavier et ainsi de suite jusqu'à ce qu'Avidemux ne m'avertisse pas que je vais mal couper le GOP.
Vous en conviendrez, c'est assez long et fastidieux comme travail, aussi, je me demandais si Avidemux (ou un autre logiciel du reste)n'aurait pas une fonction permettant de déterminer les différents points ou on peut couper sans problèmes, je sais pas si vous voyez ce que je veux dire ?

Merci.

Re: Retravailler les enregistrements de vos décodeurs enregi

MessagePosté: 30 Mar 2019 23:33
par Djeipi
Hello :)

Finalement, à l'expérience, pour simplifier, je m'en tiens à Videpub,
https://www.arthelion.com/index.php/fr/ ... fr/videpub
après avoir si nécessaire rabouté simplement les *.ts enregistrés avec la commande :
Code: Tout sélectionner
copy /b *.ts rabout.ts

Même si les coupes ne se font par toujours exactement sur les images-clés, il a l'avantage sur Avidemux de conserver l'ensemble des flux de sous-titres et audios sous leur forme originale.
L'auteur a aussi introduit la possibilité d'exporter (et d'importer) la liste des points de coupe selon un format compatible avec MKVtoolnix permettant un travail ultérieur plus fin.
Ensuite, si utile pour certains lecteurs, l'extraction (par reconnaissance optique) des sous-titres en fichier "texte" (SRT par exemple) est aisée avec SubTitle Edit.

PS : Astuce pour VidePub :
Pour certains films, si le logo de la chaîne n'apparaît pas, ça arrive, la restriction d'âge, quand elle existe, peut servir à la place.